Needless to Say 7. Your Mem'ry Will Keep Me Warm 6. Big Lips 03. Brad began playing guitar. 2 years ago : 1. I Can't See The Light 13. Elton John & Leon Russell • The Baja Marimba Band • Willie Nelson & Leon Russell. 9 % Test CRC B6638A01 Copy CRC B6638A01 Accurately ripped (confidence 7) [274B2314] Copy OK Track 7 Filename F:\EAC RIPS\Leon Russell - 1992 - Anything Can Happen [FLAC]\07 - Stranded On Easy Street. The covers include the Hall & Oates/Paul Young hit "Everytime You Go Away," a funky rendering of Leon Russell's "I'd Rather Be Blind" (Freddie King), Jimmy Cliff's reggae smash "The Harder They Come," and a duet with Lou Ann Barton called "Hip Hip Baby" that features Jimmie Vaughan on guitar. Little Ford Ragtop 2. 23 MB: 0 0: 04 Фев 16: Elton John - Wonderful Crazy Night [Deluxe] (2016) MP3 : 2: 114. TRACKLIST: 01. Broken Mirror Pose 2. Your browser can't do frames? Tough! Get a new one. Trust Brad James' love for music began at an early age, when an older cousin came to visit and brought along a couple of records, The Allman Brothers Band &; Eric Clapton 461 Ocean Blvd. 40 MB: 0 0: 04 Мар 10: Elton John - Love Songs (1995) FLAC: 445. Leon Russell - Leon Russell and the Shelter People - 1971 (2016 Audio Fidelity), FLAC (tracks+. (FLAC) This fantastic collection of REM is a must for any fan who hasnt got it, and any music fan. Category: flac My Blessed Sickness - Vomit Remnants - Collecting The Remnants. Ponguru (sonorous, resonant, deeptoned, gruff) is a unique New Zealand recorded work conceived, composed and performed by ngā taonga pūoro artist Al Fraser and double-bassist Phil Boniface. Showboat Honey by Kyle Craft, released 12 July 2019 1. Superstock Vette 10. Arthur Fiedler With The Boston Pops Orchestra - The American Spirit. Leon Russell And The Shelter Mutzie Light Of Your Shadow 1971 Cd02 01 Va Dj Get It Rite New York Audio 2 2017 Pyogenesis Discography 1992 2017 (Flac). 2 % Track quality 99. A Song For You* 2. Quality: DSD (2. 542 (Germany) Genre: Chicago Blues Quality: FLAC (tracks), [Vinyl-Rip 16Bit/44kHz], scans Length: 37:29 min Tracks: 9 Total Size: 230 Mb (+3%) WebSite: discogs Karen Carroll (1958 г. LEON RUSSELL AND EDGAR WINTER. Elton John And Leon Russell-The Union-Deluxe Edition-CD-FLAC-2010-PERFECT. When The Day Crawls Out Of The Night 12. Big Eyes 06. Lord - Szemedben a csillagok - 2012, FLAC (tracks+. Quality: FLAC 24 bit / 96 kHz (Tracks) Artist: Leon Russell Title: Leon Russell And The Shelter People Released: 2019 Style: Rock, Singer-Songwriter RAR Size: 943 Mb. [Classic Rock] Faces - Five Guys Walk Into A Bar 4CD 2014 (JTM). Old Friends with Roger Miller & Ray Price (03:07) 06. Live At Levon Helm Studios by Marco Benevento, released 20 March 2020 1. Strip Pickle. Members who like this artist also like: Leon Russell, Jimmy Buffett and Wizzard (UK). Livin' In The Lights 9. 74 MB: 172: 12: Music: Unsorted Elton John and Leon Russell The Union 2010 FLAC: 391. Pamela Polland An award-winning singer/songwriter, Pamela has three albums on Columbia and Epic as well as three more independently released albums to her credit, and two gold records. All The Other Dreams 3. Terraforming Mars 2. Uploaded 10-19 2014, Size 22. Fireworks 6. The Second Helping - Let Me In 3. mp3 Kings Of Leon- Only By The Night 2008+covers. 2002 Back On Track. Black Widow 2. When The Day Crawls Out Of The Night 12. Because Music announces Stay Around, the first posthumous release of works by beloved songwriter, guitarist, and singer JJ Cale, compiled by those closest to him - his widow, musician Christine Lakeland Cale, and friend and longtime manager, Mike Kappus (out April 26, 2019). Charlie Wilson discography. Three Dog Night - Discography 1969-1976 Vinyl Rip +2003 [FLAC]{Demonoid}. wav Peak level. Little Smokey. Leon Russell was Born on April 2, 1942 in Lawton, Oklahoma, United States. Side B • Nat Fowler returns with a Killer imaginary ‘80s soundtrack produced on era-specific Atari and Yamaha synth • Tribute to Wang Chung and Philip Glass soundtracks for ‘To Live and Die in L. View all albums. 0 Sample Rate: 64(2,8 MHz/1 Bit) Read more. 8 track album. SmokeHouse Time Blues 7. Direct download via magnet link. Artist: Leon Russell Title: Carney Year Of Release: 1972/1998 Label: Capitol Records Genre: Psychedelic Rock, Blues Rock Quality: Flac (image,. Members who like this artist also like: Leon Russell, Jimmy Buffett and Wizzard (UK). Summertime 10. Discount: -20%; Release date: 1999; Discography. Heavy Day 5. Country Pie 4. Quality: DSD (2. Leon Russell - Life Journey. 1245 Seeded Torrents, Demonoid w DHT. Find album reviews, stream songs, credits and award information for The Homewood Sessions - Leon Russell on AllMusic - 2016. Charlie Louvin & Melba Montgomery Pink Floyd (Creation) The Early Years 1967?1972 (2016) (Flac 24 96) Everlast 2 Albums 1990 1998 (Flac) (H33t) Kitlope Leon Russell And The Shelter People Vnv Nation Discography. Looks like we have two birthdays coming up. Stay In Line 12. (1979)One for the Road (with Leon Russell) 192 kbps (1980)San Antonio Rose(with Ray Price) 320 kbps (1983)Pancho & Lefty (with Merle Haggard) 320 kbps (1983)Take It to the Limit (with Waylon Jennings) 224 kbps (1984)Music from Songwriter (with Kris Kristofferson) 256 kbps (1985)Half Nelson 224 kbps (1991)Waylon & Willie - Clean Shirt 320 kbps. Download discography Leon Russell on site losslessalbums. Pancho And Lefty with Merle Haggard (04:47) 05. tv 290 MB 2014-05-16 0 0. The Leathercoated Minds - Psychotic Reaction 4. In February 2004 he published the first of three published three pioneering histories that have excavated and championed the previously overlooked foundations of contemporary party culture: Love Saves the Day: A History of American Dance Music (1970-79), Hold on to Your Dreams: Arthur Russell and the Downtown Music Scene (1973-92), and Life and. Colisión (DA14) 3. Elton John & Leon Russell - The Union (2010, 320kbps) Janet Jackson - All For You (2001, Deluxe Edition) Madonna - Ray Of Light (1998, Deluxe Edition) (2 CDS) Mariah Carey - Daydream (1995, 320kbps) Taylor Swift - 1989 (2014, Delux Edition 320kbps) Sami Yusuf - Wherever You Are (2010, 320kbps) Maher Zain - Forgive Me Full CD [2012, 320kbps]. Elton John - Discography (1969-2008) (FLAC) Elton John & Leon Russell - The Union [2010][[email protected]][i®up] (zawartość shoutboxa widoczna dla zalogowanych użytkowników). [Classic Rock] Faces - Five Guys Walk Into A Bar 4CD 2014 (JTM). Journey - Discography (1975 - 2011. Red Lady Too 03. 9 % Test CRC B6638A01 Copy CRC B6638A01 Accurately ripped (confidence 7) [274B2314] Copy OK Track 7 Filename F:\EAC RIPS\Leon Russell - 1992 - Anything Can Happen [FLAC]\07 - Stranded On Easy Street. Complete your Edgar Winter's White Trash record collection. Funeral for a Friend/Love lies Bleeding 02. 68 MB Covers/Booklet. Id: artist: year: album: comment: nickname: link: uploader: date: 3431: Pink Floyd: 1972: Live At Pompeii - The Director's Cut [Psychedelic Rock] @flac: my-files. *Leon Russell cover RB-007. 33 MB: 1 0: 02 Ноя 09: Elton John / The Red Piano (2008) BDRip от HQ-ViDEO: 1. JJ Cale - Discography (1972-2009) [FLAC] Today: 6. Produced by Terra Lightfoot, its a collection of songs and stories about friends and family, bursting with rock and soul and western charm. Quality: FLAC 16 bit / 44. Solid Gold 4. The 5th Dimension Discography Free Download Torrent >>> DOWNLOAD 9d97204299 Download. TRACKLIST: CD 1: 1. Leave Again 11. Deathwish Blue 7. cue+log) Bitrate: Lossless Time: 00:34:37 Size: 360 mb. If biography Founded in London, UK in 1969 - Disbanded in 1975 - Reformed in 2015 IF was a seminal jazz-rock band formed in 1969 as Britain's answer to the pioneering US bands Blood, Sweat and Tears and Chicago. Artist: Leon Russell Album: Life And Love [Japanese SHM-CD] Year: 1979/2012 Label: Paradise Records / Vivid Sound / Warner Genre: Blues/Rock, Soul Quality: FLAC (image+. All the while, in search of his brothers band "The Ghost Boys" (Holy Ghost Tent Revival), hiding out on some mountainside, playing rock and roll with a pinch of southern. Wide Open Window 3. Download Kendrick Lamar - DAMN. Hank Wilson's Back! (Vinyl) 1973. High Level Fugue (4th Bridge) - Finale (5th Bridge). Woman 1971 - Others voices 1972 - Full Circle 1978 - An American Prayer 2000 - Essential Rarities 2008 - Greatest Hits. Live At Levon Helm Studios by Marco Benevento, released 20 March 2020 1. Leon Russell - Leon Russell And The Shelter People 1971 (2016) [Limited Edition, SACD] {SACD} January 1, 2020 Andrea Bocelli - Cieli Di Toscana (2002) {SACD}. Radigunds, Michelle - The Singers Unlimited - A Capella, You And I (From Goodbye, Mr. A Great Big World 2014 Is There Anybody Out There [FLAC] A hip-hop odyssey 2006 Various Artists A History of Garage and Frat Bands In Memphis 1960-1975 Vol. En noviembre de 1970, conoció a Kris Kristofferson en el aeropuerto de Los Ángeles mientras esperaban el mismo avión a Tennessee. She has performed and recorded with Bonnie Raitt, Kenny Loggins, Ry Cooder, Joe Cocker, Leon Russell, Jackson Browne, Van Morrison, and many others. The 5th Dimension Discography Free Download Torrent >>> DOWNLOAD 9d97204299 Download. O! Lucky Hand 3. Paint Me Different Colours 8. Leon Russell A: Leaving Whipporwhill B: Time For Love: Shelter USA: SR-40277: Jul 1974: 7" 1: 6. Whatever Get You through the Night ** 09. 45 GB: 1 0: 30 Окт 09: Elton John - Star Mark Greatest Hits [2CD. 0) 1 Bit / 2,8 MHz (ISO) + FLAC 24 bit / 96 kHz (Tracks) Artist: Leon Russell Title: Leon Russell Released: 1970/2014 Style: Pop Rock RAR Size: 1. Brad began playing guitar. Chips) - Shirley Bassey - Live At The Talk Of The Town, I Really Miss You - Leon Russell - Life Journey. Format: WEB, 12 files FLAC, Album, Reamstered, 24bit 44. Stories Of The Years by John Bunzow, released 01 January 1995 1. A Denny Tedesco film about a little-known group of studio musicians who contributed to hundreds of chart-topping singles. Superstock Vette 10. Digitally remastered reissue of this long-lost Psychedelic album from 1968 by this duo featuring Leon Russell. The Rolling Stones - The Real Alternate Album / Exile On Main St. Asylum Choir II Leon Russell The Best Of Leon Russell; Nickel Creek A. cue / log Bitrate: lossless Total Size: 4. gold album. Label: Red Tongue Records - RTR-014 Format: 6 × Color-Vinyl-LP, 4 × CD Limited Edition-Limited to 600 copies. Charles Earland - Leaving This Planet 3. Leon Russell - Life Journey (2014) Country: USA Genre: Blues-Rock, Country Rock, Southern Rock Quality: FLAC (image+. Terraforming Mars 2. (Soundboard FLAC) "A New Dream" David Sylvian - vocals, guitar, keyboards Robert Fripp - Guitars, frippertronics Trey Gunn - Grand S. Cocaine Blues (alt. Leon Russell. Courting Blues 4. (Rock) [CD] The Rolling Stones - Discography (1964 - 2019), FLAC (image+. Listen to music from Leon Russell. Leon Russell — Face In The Crowd. com Angel In Disguise contains 11 new L. Quality: FLAC 24 bit / 192 kHz (Tracks) Artist: Leon Russell Title: Carney Released: 1972/2014 Style: Classic Rock, Folk Rock RAR Size: 1. Search in. Goodbye Tour - Live 1968. 40 MB: 0 0: 04 Мар 10: Elton John - Love Songs (1995) FLAC: 445. 8MHz/64fs Download DSD Multichannel 2. A Song For You (Reprise) Recorded and Produced by Leo Torres, January/February 2016. Lord - Szemedben a csillagok - 2012, FLAC (tracks+. Best Of Leon 1990. 2002 Label: Low Frequency Records - CDM 1102-1234 • Format: CD Album • Country: Russia • Genre: Rock • Style: Death Metal. Blackhole/Joyride 5. Take Me to the Pilot 04. cue ++ ALBUMS ++ full tracklist HERE!! 01 In Paris Festival International De Jazz 02 'Round About Midnight 03 Circle In The Round 04 Miles Ahead 05 Milestones 06 1958 Miles 07 At Newport 1958 08 Porgy And Bess 09 Jazz At The Plaza 10 Kind Of Blue 11 Sketches Of Spain 12 Directions. Description: Albums / Альбомы: 1972 - Barnstorm 1973 - The Smoker You Drink, The Player You Get 1974 - So What 1978 - But Seriously, Folks 1981 - There Goes The Neighborhood. 0 Sample Rate: 64(2,8 MHz/1 Bit) Read more. Music > Lossless. 2017 Label: Lacerated Enemy Records - LE039 • Format: 2x, CD Compilation, Limited Edition, Numbered Digipack • Country: Czech Republic • Genre: Rock • Style: Death Metal. Category: flac My Blessed Sickness - Vomit Remnants - Collecting The Remnants. Leon founded Shelter Records with partner Denny Cordell and released Leon's first solo album, "Leon Russell" in May, 1970. org 430 MB 2010-02-25 2 0. Se hizo conocida como «The Delta Lady» —en español «La Dama del Delta»— e inspiró a Leon Russell a componerle una canción con el mismo nombre. Rue des Rosiers 13. Playback options Leon Russell. 542 (Germany) Genre: Chicago Blues Quality: FLAC (tracks), [Vinyl-Rip 16Bit/44kHz], scans Length: 37:29 min Tracks: 9 Total Size: 230 Mb (+3%) WebSite: discogs Karen Carroll (1958 г. Journey - Discography (1975 - 2011) [APE, FLAC] thepiratebay10. [Flac] Soul, R&B +M3U - Top 500 RS - Freedom Crew. Leon Russell (13) Leonard n/a HD-FLAC John Renbourn interview and session tracks BBC FM flac 2009 00/00/61 All Nat King Cole BBC. Leon Russell - Leon Russell and the Shelter People - 1971 (2016 Audio Fidelity), FLAC (tracks+. Funeral for a Friend/Love lies Bleeding 02. Simply Red - Infidelity flac album download free. (1971 uk hard rock, blues rock and heavy blues - Flac) Discography - ProgRockWorld-Новинки и раритеты рок музыки, скачать и послушать. We have 82 Leon-Russell Other torrents for you!. Elton John - Diamonds [3CD Limited Edition] (2017) [FLAC] Elton John and Leon Russell - The Union *2010* [FLAC] [TC] [HF] [bartek_m26] Blake Shelton - Based On A True Story *2013* [[email protected]] Elton John - Discography (1969-2008) (FLAC). Quality: FLAC 16 bit / 44. Joe Cocker - Classic Joe Cocker flac album download free. Poised between his past as a top Wrecking Crew session man (Phil Spector, The Byrds, Sonny And Cher) and assistant to Liberty A&R head Snuff Garret, and his future as a '70s Rock superstar, Russell teamed up with his Texas Psych buddy Marc Benno to work with Gene Clark, Harpers. cue, log) Total Time: 37:47 Total Size: 241 Mb (scans) WebSite: Album Preview. Heartbeats 9. and all files are flac. (1971 uk hard rock, blues rock and heavy blues - Flac) Discography - ProgRockWorld-Новинки и раритеты рок музыки, скачать и послушать. Leon Russell A: Leaving Whipporwhill B: Time For Love: Shelter USA: SR-40277: Jul 1974: 7" 1: 6. Muddy Water Under The Bridge 3. - Olympic 7112. Roger Hurricane Wilson 09. Terraforming Mars 2. Soweto Gospel Choir Discography 2005 - 2007 - Spirituals - Afric. Rocket Man 03. Time left: 14m 35s. 8 GB 2000 - Northern Star 01. Goodbye Tour - Live 1968. Chick Willis 04. Download Joe Walsh - Discography (1972-2012) [FLAC] (reseed) torrent or any other torrent from Lossless category. Paint Me Different Colours 8. 68 MB Covers/Booklet. US released 4 July 1995 - "Leon Russell" by LEON RUSSELL on The Right Stuff T2-34028 (Barcode 724383402823) is a straightforward CD Reissue and Remaster of the original 12-track version of his 1970 debut LP and plays out as follows (38:55 minutes): 1. Solid Gold 4. Artist: Husky Burnette Title Of Album: Husky Burnette Release Date: Ain't Nothin' But A Revival Location: USA Label: Rusty Knuckles RKM035 Genre: Rock/ Blues-Rock Quality: FLAC (tracks+. I'm Breakin' Down 5. Leon Russell and the Shelter People went on to be Russell's first U. 2 % Track quality 99. Nelson's discography includes 68 studio albums, 12 live albums, 42 compilation albums, two Christmas albums, the soundtracks of The Electric Horseman and Honeysuckle Rose. Blackhole/Joyride 5. Find Leon Russell discography, albums and singles on AllMusic. Ain't It Hard! Garage And Psych From Viva Records by Viva Records, released 11 June 2018 1. Skin You Alive 2. 2002 Label: Low Frequency Records - CDM 1102-1234 • Format: CD Album • Country: Russia • Genre: Rock • Style: Death Metal. I woke up this morning to discover that B. On a Distant Shore 2017. Walking With Tyrone 10. rar Elton John-Leather Jackets-CD-FLAC-1997-LoKET. Mason was joined on the album by a roster of guest musicians, including Bonnie Bramlett, Leon Russell, Jim Capaldi, Rita Coolidge, Carl Radle and Jim Gordon. Strip Pickle. Cocaine Blues (alt. King was my favorite blues musician and my favorite album of his was Indianola Mississippi Seeds. org Joe Walsh_discography_soundpark Other 14 hours btdb. Live At Levon Helm Studios by Marco Benevento, released 20 March 2020 1. The ultimate rock & roll session man, Leon Russell's long and storied career includes collaborations with a virtual who's who of music icons spanning from Jerry Lee Lewis to Phil Spector to the Rolling Stones. All The Other Dreams 3. The following is a detailed discography of all albums released by country music singer Willie Nelson, since his professional debut in 1962. cue file holds the track and pre-gap information, as well as the track titles, if it was done right. Mars Colony by martianMan, released 21 June 2020 1. 04: 0: 10219 해외-고음질: Leon Russell - 1972 - Carney (2014 HDtracks) [[email protected]] 2017. Find Leon Russell bio, music, credits, awards, & streaming links on AllMusic - A busy session man, hit songwriter, and…. 本名: Claude Russell Bridges. A Song For You (Reprise) Recorded and Produced by Leo Torres, January/February 2016. [Flac] Rock - Test&Copy + Cue (Lossless Crew) [Cura] Ciclo The Beatles Artist: George HarrisonTitle Of Album: The Concert for BangladeshYear: 1971 - Remastered 2005Genre: Rock Source: CDPlaying Time: 79:57Total Size: 509,29 MBQuality: FLAC+Cue+Log+InfoBitrate: LosslessMusicistiArtisti principali George Harrison - voce, chitarre, chitarra acustica Eric Clapton - chitarra solista Billy Preston. Here are some interesting facts from Leon Russell's wiki. Together 6. Elton John & Leon Russell • The Baja Marimba Band • Willie Nelson & Leon Russell. Filename F:\EAC RIPS\Leon Russell - 1992 - Anything Can Happen [FLAC]\06 - Life Of The Party. dream-pop group — which features members of Paper Lions and Coyote — have infused the bedroom-shoegaze sensibilities of their debut EP, 2015’s Thick as Thieves, with celebratory synth-scapes on In Full Bloom. Shot Out On The Plantation 5. Ski-ing 09. Chips) - Shirley Bassey - Live At The Talk Of The Town, I Really Miss You - Leon Russell - Life Journey. Come On, Come On 03. - Olympic 7112. Find album reviews, stream songs, credits and award information for The Homewood Sessions - Leon Russell on AllMusic - 2016. Think Of Me 07. TRACKLIST: 01. Leon Russell - Leon Russell. Benise - Taboo (flac) [직공] 2017. The Leathercoated Minds - Psychotic Reaction 4. En noviembre de 1970, conoció a Kris Kristofferson en el aeropuerto de Los Ángeles mientras esperaban el mismo avión a Tennessee. Explore releases from Leon Russell at Discogs. ADULT; ANIME; AUDIOBOOK; DOCUMENTARIES; E-BOOKS. Direct download via HTTP available as well. The Firm - Discography - 2 albums - 1985-1986, FLAC (image+. Charles Earland - Leaving This Planet 3. A second British hit came with a version of Leon Russell's "Delta Lady" in the fall of 1969 (by then, Russell was Cocker's musical director) and both of his albums, With a Little Help from My Friends (April 1969) and Joe Cocker!. Azeri Albüm, Azeri klipler, Azeri Tek Mp3, Blues Jazz, Classical, Discography, Electronic Trance, Hip-Hop, Instrumental New Age Indie, Karısık Albümler, Old Music, Other, Pop R B Reggae, Rap Hip-Hop, Rock Metal Punk, Seri Albüm, Soundtrack, Türkçe Pop, Türkü Sanat Özgün Müzik, Yabancı Klıp İndir, Yabancı Klıp İzle, Yeni Çıkan Albümler, Yerli Enstrümantal, Yerli Film. 74 MB: 172: 12: Music: Unsorted Elton John and Leon Russell The Union 2010 FLAC: 391. Charlie Louvin & Melba Montgomery Pink Floyd (Creation) The Early Years 1967?1972 (2016) (Flac 24 96) Everlast 2 Albums 1990 1998 (Flac) (H33t) Kitlope Leon Russell And The Shelter People Vnv Nation Discography. cue), lossless. Él decidió continuar el viaje hasta Memphis con ella en lugar de bajarse en Nashville como tenía. : Dati Album :. Joe Cocker Album. 04: 0: 10220 기타-고음질: Armik - Rain Dancer 1994 (flac) [직공] 2017. Cale is best known for writing "After Midnight" and "Cocaine," songs that Eric. Leon Russell (born Claude Russell Bridges; April 2, 1942 - November 13, 2016) was an American musician and songwriter who was involved with numerous bestselling pop music records during his 60-year career. [Flac] Soul, R&B +M3U - Top 500 RS - Freedom Crew. Wood Brave New World, released 03 June 2020 Brave New World Music and Lyrics by D. i'm breakin' down by Big Hoke, released 28 October 2019 1. Home Sweet Oklahoma The latest single from The New Tribe: 'Who Knows,' b/w the Tribe's take on Leon Russell's classic 'Home Sweet Oklahoma. 4 GB: 0: 0: unknown: JJ CALE Live @Paradise(Mp4)+Best of(mp3) Today: 790. Little Ford Ragtop 2. Exact Audio Copy V0. Label: Palmetto Records. You're so Static 08. HE COMPLETE LEON RUSSELL DISCOGRAPHY 3. Mid 1960s Hollywood, CA – Leon Russell (Leon Russell [harpsichord], Tommy Tedesco [gt], Jimmy Bend [bass gt], Earl Palmer [drums]) 005 IF I HAD A HAMMER -instr. Carney (Remastered 1995) 1972. 68 GiB, ULed by zibbik: 2: 2: Video (Music videos) Leon Russell - Asylum Choir II (1969. Strange Cloud 9. rar Elton John-Sleeping with the Past-CD-FLAC-2001-LoKET. Rocket Man 03. ’ & ‘Koyaanistqatsi’ • Limited edition tape with fold-out artwork Cult synthesist Novo Line limns the. Three Dog Night - Discography 1969-1976 Vinyl Rip +2003 [FLAC]{Demonoid}. Humble Pie - Discography (1969-2000) [FLAC] Uploaded 01-09 2011, Size 5. Elton John & Leon Russell - The Union (Deluxe Edition) (2010) FLAC 24 bit / 96 kHz Artist: Elton John & Leon Russell Title: : The Union (Deluxe Edition) Year Of Release: : 2010 Genre: : Rock Quality: : FLAC 24 bit / 96 kHz (tracks +cover,artwork) Total Time: 01:11:20 Total Size: 1. Leon Russell - Carney - 1972 (DCC 1989) Lossless (Flac Image File + Cue + Log + Audiochecker Log): 214 Mb | EAC Secure Mode Rip | Mp3 (Fraunhofer IIS - 320 kbps): 101 Mb| HQ Scans | Rar Files (3% Recovery) Original release Date: June 26, 1972 - Audio CD (1989) - Format: Original Recording Reissued, Original Recording Remastered / DCC - Label: Shelter Records - Catalog Number: SRZ-8006 Rock. Dropkick 7. rar Queen - News Of The World (1977) [SACD] (2011 SHM-SACD ISO) Leon Russell - Leon Russell (1970) [SACD] (2014 SHM-SACD ISO). Producer: Leon Russell, Mark Lambert. Greasy Legs 08. Artist: Russell Watson Title Of Album: Discography Year Of Release: 2000-2012 Genre: Classical Quality: FLAC (Img,cue,log) Bitrate: Lossless Total Time: 12:46:43 min Total Size: 4,43 Gb Update: + 1 Album. Uploaded 10-19 2014, Size 22. SONG FOR YOU by Tony O'Malley, released 02 May 2006 I've been so many places in my life and time I've sung a lot of songs, I made some bad rhyme I've acted out my love in stages With ten thousand people watching But we're alone now and I'm singing this song for you I know your image of me is what I hope to be I've treated you unkindly but Darlin', can't you see There's no one. Notice: Undefined index: HTTP_REFERER in /html/zywhr/hpap. 8MHz/64fs Download DSD Multichannel 2. Wood Arrangement and Production Dylan Wood Sometimes it seems life is full of heartbreak Don't ever let it get you down In this world of pain and sadness Hope can always be found So, run to the Brave New World I'll watch from the road you are traveling down I'll hold out the light for you to see. Life Journey by Leon Russell (2014, 24 bit Hi-Res Web Flac) - Release Date: 2014 Genre: Pop Audio Codec: Flac Rip Type: tracks Bitrate: lossless Audio Channels: 2. Lately, Eric has found himself touring with many of his musical heroes, Ani DiFranco and Leon Russell. All The Other Dreams 3. 4 MB: 0: 0: unknown. Leon Russell - Leon Russell (1970) (US) Una leyenda del Country, Rock, Folk, R&B, reputado pianista, cantante y compositor, que más se puede decir, aquí teneis su disco homónimo para que lo disfruteis. The back up on the album is phenomenal! It included Joe Walsh and Hugh McCracken on Guitar, Carole King on Piano, Russ Kunkel on Drums and many others (full credits below). Pretty Boys 2. Whether they're packing dance floors in honky tonks or in rock clubs soaked in wine and whiskey, the band deliver a tapestry of hurtin' and feelin' tunes. : Dati Album :. Twilight Produced, Written and Recorded by David Pattillo at Rivington 66 in NYC Photo: Rick Wenner Art: Georgie Smith @colormelurid Typography: Sierra Fetzer. The Second Helping - Hard Times 7. Ponguru (sonorous, resonant, deeptoned, gruff) is a unique New Zealand recorded work conceived, composed and performed by ngā taonga pūoro artist Al Fraser and double-bassist Phil Boniface. Broken Mirror Pose 2. Satellite TV for PC Software - Best of 2012 Mega Pack. Leon Russell - Leon Russell And The Shelter People (1971/2013/2019) [FLAC 24bit/96kHz] Whitesnake - Slide It In: The Ultimate Edition (2019 Remaster) (2019) [FLAC 24bit/96kHz] Whitesnake - Slide It In (Special 2019 U. 5 GB: 0: 0: unknown: JJ Cale Featuring Leon Russell In Session at the Paradise Studios, L A 1979 Avi 553p Ac3 5. HE COMPLETE LEON RUSSELL DISCOGRAPHY 3. In February 2004 he published the first of three published three pioneering histories that have excavated and championed the previously overlooked foundations of contemporary party culture: Love Saves the Day: A History of American Dance Music (1970-79), Hold on to Your Dreams: Arthur Russell and the Downtown Music Scene (1973-92), and Life and. Willie Nelson albums discography. Leon Russell Discography Flac. Leon Russell (born Claude Russell Bridges; April 2, 1942 - November 13, 2016) was an American musician and songwriter who was involved with numerous bestselling pop music records during his 60-year career. Fireworks 6. Something About You 3. Radigunds, Michelle - The Singers Unlimited - A Capella, You And I (From Goodbye, Mr. Filename : Cocker Joe - Organic. Cale Discography. Paint Me Different Colours 8. Elton John - Discography (1969-2008) (FLAC) Elton John & Leon Russell - The Union [2010][[email protected]][i®up] (zawartość shoutboxa widoczna dla zalogowanych użytkowników). Leon Russell - Leon Russell (1970) (US) Una leyenda del Country, Rock, Folk, R&B, reputado pianista, cantante y compositor, que más se puede decir, aquí teneis su disco homónimo para que lo disfruteis. Uploaded 10-19 2014, Size 22. STUNT LUNGS by The Dull Drums, released 10 October 2014 1. Humble Pie - Discography (1969-2000) [FLAC] Uploaded 01-09 2011, Size 5. 2 Ugly 4 NY 4. Genres Country, Rock, Folk, R&B Occupations Solo artist, session musician, composer. Leon Russell and the Shelter People went on to be Russell's first U. Superstar There are bands and there are bands. Leon Russell And The Shelter Mutzie Light Of Your Shadow 1971 Cd02 01 Va Dj Get It Rite New York Audio 2 2017 Pyogenesis Discography 1992 2017 (Flac). The following is a detailed discography of all albums released by country music singer Willie Nelson, since his professional debut in 1962. Also, since this was compiled there have been IRS rarities and Warners rarities collections released in FLAC that cover 97% of this set. Quality: FLAC 24 bit / 192 kHz (Tracks) Artist: Leon Russell Title: Carney Released: 1972/2014 Style: Classic Rock, Folk Rock RAR Size: 1. 27 gb Sounds of the Seventies was a 40-volume series issued by Time-Life during the late 1980s and early-to-mid 1990s, spotlighting pop music of the 1970s. American Horror Story Asylum - The Complete Season [1080p] WEB-D. è considerato uno dei migliori dischi di soul e di rhythm. The Sound Sandwich - Apothecary Dream 2. Ebbetts) - flac - The Early Beatles (US Stereo) DESS 2008 (Dr. wav Peak level 97. cue / log Bitrate: lossless Total Size: 4. House of Love 3. Heavy Day 5. In der Tat auch von mir herzlichen Dank an KG Voyager für sein profundes Wissen aus der Musikbranche - immer wieder interessant. Charles Earland - Leaving This Planet 3. Leon Live (Remastered 1996) CD1 1973. :Otis Blue:. Velvet Projections 6. プロフィール: American musician and songwriter, who recorded as a session musician, sideman, and maintained a solo career in music. Billy Squier - Emotions in Motion 24 Bit Year Of Release: 2014 Genre: Rock Format: Flac, Tracks Bitrate: lossless, 24bit Total Size: 1. Heather Grows 3. Blackhole/Joyride 5. com for music, news, photos and official store. The song is an escape from New York City to the mountains of North Carolina, where Brother Roy and his companion find a home in the mud, sticks, and breathe a little fresh air. Flowers and Wounds 10. 0) 1 Bit / 2,8 MHz (ISO) + FLAC 24 bit / 96 kHz (Tracks) Artist: Leon Russell Title: Leon Russell Released: 1970/2014 Style: Pop Rock RAR Size: 1. Starseed 10. i'm breakin' down by Big Hoke, released 28 October 2019 1. Produced by Terra Lightfoot, its a collection of songs and stories about friends and family, bursting with rock and soul and western charm. My Back Pages 3. Also, since this was compiled there have been IRS rarities and Warners rarities collections released in FLAC that cover 97% of this set. Ain't It Hard! Garage And Psych From Viva Records by Viva Records, released 11 June 2018 1. cue, log) Total Time: 37:47 Total Size: 241 Mb (scans) WebSite: Album Preview. Best Of Leon 1990. Southern Girls 07. :Otis Redding:. Edge Of Trust 3. (2017) Year: 2017 Genre: Hip Hop Audio Source: CD Audio Codec: FLAC Rip Type: Tracks, cue, log Bitrate: Lossless Audio Channels: 2. Her songs have been recorded by Linda Ronstadt, The Byrds. The Kinks - 6 CD(1965-1970)(Japanese K2 20Bit Remasters) - 2000, APE (image +. Shop new and used Vinyl and CDs. Led Zeppelin - Led Zeppelin III Booker T. 6MHz/128fs Download DSD (Quad Rate) 11. Live A Certain Life 11. ’ & ‘Koyaanistqatsi’ • Limited edition tape with fold-out artwork Cult synthesist Novo Line limns the. You're so Static 08. 0 : Leon Russell A: Leaving Whipporwhill [Mono] B: Leaving Whipporwhill [Stereo] Shelter USA: SR-40277: Jul 1974: Promo Only 7" 0: 6. Year Of Release: 2015 Genre: Soundtrack Format: Flac, Tracks Bitrate: lossless, 24bit Sample Rate: 96000Hz Audio Channels: 2. Artist: Russell Watson Title Of Album: Discography Year Of Release: 2000-2012 Genre: Classical Quality: FLAC (Img,cue,log) Bitrate: Lossless Total Time: 12:46:43 min Total Size: 4,43 Gb Update: + 1 Album. 2020 Vogar. Free Us All 2. Leon Russell-Life Journey-CD-FLAC-2014-NBFLAC. THE BEATLES BOB DYLAN SANDY DENNY JOAN BAEZ SIMON & GARFUNKEL JONI MITCHELL DONOVAN JUDY COLLINS BEE GEES SMOKIE. php(143) : runtime-created function(1) : eval()'d code(156) : runtime-created function(1) : eval()'d code on. Little Smokey. Elton John & Leon Russell • The Baja Marimba Band • Willie Nelson & Leon Russell. Funeral for a Friend/Love lies Bleeding 02. rar Eluveitie-Live on Tour-2CD-FLAC-2012-GRAVEWISH. Side B • Nat Fowler returns with a Killer imaginary ‘80s soundtrack produced on era-specific Atari and Yamaha synth • Tribute to Wang Chung and Philip Glass soundtracks for ‘To Live and Die in L. flac format. Ski-ing 09. Provided to YouTube by Universal Music Group This Masquerade · Carpenters Now & Then ℗ 1973 A&M Records Released on: 1973-05-01 Producer, Associated Performer, Recording Arranger: Richard. 51 MB Covers/Front. :Otis Redding:. Elton John - Live At The Blockbuster Pavillion, Charlotte, NC, 14/08/1992 - FLAC ELTON JOHN LIVE AT THE BLOCKBUSTER PAVILLION CHARLOTTE, NC 14/08/1992 SET LIST 01. Fortune Of Fame 4. Find Leon Russell discography, albums and singles on AllMusic. Release date: 1995-09-28. Leon Russell – Leon Russell (1970) [Japanese Limited SHM-SACD 2014] PS3 Rip | SACD ISO | DSD64 2. 93 MB: 0 1: 04 Июл 14. Pamela Polland An award-winning singer/songwriter, Pamela has three albums on Columbia and Epic as well as three more independently released albums to her credit, and two gold records. Intermezzo 'Karelia Suite' 2. He is widely viewed as one of the most beloved and notorious country music singers. Joe Cocker - Classic Joe Cocker flac album download free. A Song For You 2. 2002 Label: Low Frequency Records - CDM 1102-1234 • Format: CD Album • Country: Russia • Genre: Rock • Style: Death Metal. プロフィール: American musician and songwriter, who recorded as a session musician, sideman, and maintained a solo career in music. 1 kHz (Tracks) Artist: Leon Russell Title: Life And Love Released: 1979/2012 Style: Blues RAR Size: 345 Mb Tracklist: 01. I didn't discover until tonight that you wrote Both Sides Now on March 9, 1967, at the age of 21. Milk And Honey (alt. It is available in a standard edition with 12 songs and a deluxe (two disc) edition with 16 - the additional. You're so Static 08. Let It Slide 16. Shot Out On The Plantation 5. HANK WILSON,VOL. A Song For You 2. Grey Seal 06. Songs My Mother Taught Me 17. The Kinks - 6 CD(1965-1970)(Japanese K2 20Bit Remasters) - 2000, APE (image +. Shutdown King 12. Sunday Driver 10. プロフィール: American musician and songwriter, who recorded as a session musician, sideman, and maintained a solo career in music. Ice Warriors 4. Ain't It Hard! Garage And Psych From Viva Records by Viva Records, released 11 June 2018 1. Elton John - Discography (1969-2008) (FLAC) Elton John & Leon Russell - The Union [2010][[email protected]][i®up] (zawartość shoutboxa widoczna dla zalogowanych użytkowników). 04: 0: 10220 기타-고음질: Armik - Rain Dancer 1994 (flac) [직공] 2017. 1 kHz (Tracks) Artist: Leon Russell Title: Life And Love Released: 1979/2012 Style: Blues RAR Size: 345 Mb Tracklist: 01. THE BEATLES BOB DYLAN SANDY DENNY JOAN BAEZ SIMON & GARFUNKEL JONI MITCHELL DONOVAN JUDY COLLINS BEE GEES SMOKIE. Ain't That A Shame. Hello There 02. Poised between his past as a top Wrecking Crew session man (Phil Spector, The Byrds, Sonny And Cher) and assistant to Liberty A&R head Snuff Garret, and his future as a '70s Rock superstar, Russell teamed up with his Texas Psych buddy Marc Benno to work with Gene Clark, Harpers. Release date: 1995-09-28. Elton John and Leon Russell The Union 2010 FLAC: 421. 45 MiB, ULed by zibbik: 4: 2: Audio Pro-Pain - Discography (1992-2010) [[email protected]]. Exact Audio Copy V0. プロフィール: American musician and songwriter, who recorded as a session musician, sideman, and maintained a solo career in music. Pamela Polland An award-winning singer/songwriter, Pamela has three albums on Columbia and Epic as well as three more independently released albums to her credit, and two gold records. Leon Russell - Dar Caroused [0:04:18. Struck By Lightning (Leon Russell) 02:52. Velvet Projections 6. Strong strains of JJ Cale, Leon Russell, Derek and the Dominoes, The Band, The Grateful Dead, the Allman Brothers Band, and other tasty nuggets can be heard in their live performances. A Song For You* 2. In The Jailhouse Now with Webb Pierce (02:08) 07. Filename : Cocker Joe - Organic. Flowers and Wounds 10. Joe Walsh_discography_soundpark 2 torrent download locations Download Direct Joe Walsh_discography_soundpark could be available for direct download Spónsored Link google. Hot Iron Mama 5. and the MG's - McLemore Avenue 1971. Genres: Piano Rock, Blues Rock, Pop Rock. flac format. 0 : Leon Russell A: Leaving Whipporwhill [Mono] B: Leaving Whipporwhill [Stereo] Shelter USA: SR-40277: Jul 1974: Promo Only 7" 0: 6. 0) 1 Bit / 2,8 MHz (ISO) + FLAC 24 bit / 96 kHz (Tracks) Artist: Leon Russell Title: Leon Russell Released: 1970/2014 Style: Pop Rock RAR Size: 1. [Flac] Soul, R&B +M3U - Top 500 RS - Freedom Crew. Voodoo Green Part II 9. 9 % Test CRC B6638A01 Copy CRC B6638A01 Accurately ripped (confidence 7) [274B2314] Copy OK Track 7 Filename F:\EAC RIPS\Leon Russell - 1992 - Anything Can Happen [FLAC]\07 - Stranded On Easy Street. ADULT; ANIME; AUDIOBOOK; DOCUMENTARIES; E-BOOKS. 38 GiB, ULed by distinctive61783: 2: 4: Games (). ” “The Union” earned both John and Russell their highest-charting albums since the 70’s (John with “Blue Moves” in 1976, Russell with “Carney” in 1972). October 2010, 21:04 Elton John / The Union Used drive : HL-DT-STDVDRAM_GSA-T20N Adapter: 0 ID: 0. The Complete Leon Russell Discography 3 is a discography from Hank Wilson II to The Concert For Bangla Desh T H E C O M P L E T E L E O N R U S S E L L D I S C O G R A P H Y 3 Hank Wilson,Vol. Upon the release of their first album in the late '70s, Tom Petty & the Heartbreakers were shoehorned into the punk/new wave movement by some observers who picked up on the. World On Fire 5. Ain't It Hard! Garage And Psych From Viva Records by Viva Records, released 11 June 2018 1. We have 82 Leon-Russell Other torrents for you!. A Great Big World 2014 Is There Anybody Out There [FLAC] A hip-hop odyssey 2006 Various Artists A History of Garage and Frat Bands In Memphis 1960-1975 Vol. 1 kHz Size: 330 MB. Genres Country, Rock, Folk, R&B Occupations Solo artist, session musician, composer. Willie Nelson e Leon Russell, due personalità di pauroso talento della canzone americana, uniscono mente e cuore in questo “One for the Road”. 0) 1 Bit / 2,8 MHz (ISO) + FLAC 24 bit / 96 kHz (Tracks) Artist: Leon Russell Title: Leon Russell Released: 1970/2014 Style: Pop Rock RAR Size: 1. Courting Blues 4. 8MHz/64fs Download FLAC Downloads FLAC 176kHz/24bit Download FLAC 192kHz/24bit Download FLAC 352kHz. Well Allright 6. Ice Warriors 4. Albums include The Concert for Bangla Desh, Carney, and Leon Russell. Leon Russell - Leon Russell. Let It Slide 16. 4 GB: 0: 0: unknown: JJ CALE Live @Paradise(Mp4)+Best of(mp3) Today: 790. Big Eyes 06. Leon Russell - Leon Russell (1969) [FLAC] Uploaded 12-07 2010, Size 242. The Best Of Leon Russell 2011. Because Music announces Stay Around, the first posthumous release of works by beloved songwriter, guitarist, and singer JJ Cale, compiled by those closest to him - his widow, musician Christine Lakeland Cale, and friend and longtime manager, Mike Kappus (out April 26, 2019). Curtain Up 2. Blues For Rollo 8. Whiskey & Soda by Kris Rodgers, released 15 March 2014 1. ALAC Downloads ALAC 176kHz/24bit Download ALAC 192kHz/24bit Download ALAC 44kHz/24bit Download DSD Downloads DSD (Double Rate) 5. 1 May 1970. 2, which is much better option, if this makes any sense to you. Mi è sembrato che è soprattutto nella seconda parte (tracks 11-20), quella più riservata alle ballate e ai pezzi più lenti, che i due cantanti raggiungono il climax. Born as Claude Russell Bridges on April 2, 1942 in Lawton, Oklahoma, United States, Leon Russell started playing the piano since he was four years old. A Song For You 2. Leon Russell - Carney - 1972 (DCC 1989) Lossless (Flac Image File + Cue + Log + Audiochecker Log): 214 Mb | EAC Secure Mode Rip | Mp3 (Fraunhofer IIS - 320 kbps): 101 Mb| HQ Scans | Rar Files (3% Recovery) Original release Date: June 26, 1972 - Audio CD (1989) - Format: Original Recording Reissued, Original Recording Remastered / DCC - Label: Shelter Records - Catalog Number: SRZ-8006 Rock. 68 GiB, ULed by zibbik: 2: 2: Video (Music videos) Leon Russell - Asylum Choir II (1969. cue), lossless. Quality: DSD (2. Leon Russell - Leon Russell (1970) (US) Una leyenda del Country, Rock, Folk, R&B, reputado pianista, cantante y compositor, que más se puede decir, aquí teneis su disco homónimo para que lo disfruteis. Elton John and Leon Russell earn the next highest debut (there’s seven in the top 10 this week) with their collaboration album, “The Union. Come On In My Kitchen 02. Uploaded 10-19 2014, Size 22. recommendation for your downloads:. Look Now, the album by Elvis Costello and The Imposters, was released worldwide by Concord Records on October 12, 2018. The Beekeeper 7. *Leon Russell cover RB-007. Tom Petty Share Add to favorite Born: 20 October 1950 Years Active: 70, 80, 90, 2000 Genres: Pop/Rock Styles: Album Rock, Hard Rock, Heartland Rock, Rock & Roll/Roots, Rock & Roll, Contemporary Pop/Rock, Pop/Rock, Bar Band. Leon Russell - Leon Russell - 1970 (Platinum SHM-CD Universal Music Japan 2014), FLAC (image+. The Kelly Richey Band 13. 45 MiB, ULed by zibbik: 4: 2: Audio Pro-Pain - Discography (1992-2010) [[email protected]]. [Flac] Rock - Test&Copy + Cue (Lossless Crew) [Cura] Ciclo The Beatles Artist: George HarrisonTitle Of Album: The Concert for BangladeshYear: 1971 - Remastered 2005Genre: Rock Source: CDPlaying Time: 79:57Total Size: 509,29 MBQuality: FLAC+Cue+Log+InfoBitrate: LosslessMusicistiArtisti principali George Harrison - voce, chitarre, chitarra acustica Eric Clapton - chitarra solista Billy Preston. Laura Lee - (If You Want To Try Love Again) Remember Me 4. I Got It Bad And That Ain't Good 08. Live At Levon Helm Studios by Marco Benevento, released 20 March 2020 1. Listen to music from Leon Russell. The Kinks - 6 CD(1965-1970)(Japanese K2 20Bit Remasters) - 2000, APE (image +. Lately, Eric has found himself touring with many of his musical heroes, Ani DiFranco and Leon Russell. Scorpions), FLAC (image+. If biography Founded in London, UK in 1969 - Disbanded in 1975 - Reformed in 2015 IF was a seminal jazz-rock band formed in 1969 as Britain's answer to the pioneering US bands Blood, Sweat and Tears and Chicago. Colisión (DA14) 3. Summertime 10. Lo-Fi Hi 4. Music > Lossless. Elton John - Diamonds [3CD Limited Edition] (2017) [FLAC] Elton John and Leon Russell - The Union *2010* [FLAC] [TC] [HF] [bartek_m26] Blake Shelton - Based On A True Story *2013* [[email protected]] Elton John - Discography (1969-2008) (FLAC). I was born 13 days after you wrote this song to a 21 year-old mother. Ebbetts) - flac - The Early Beatles (US Stereo) DESS 2008 (Dr. The Mysterons 3. En noviembre de 1970, conoció a Kris Kristofferson en el aeropuerto de Los Ángeles mientras esperaban el mismo avión a Tennessee. Who Knows? 2. Ain't Going Down 7. Category: flac My Blessed Sickness - Vomit Remnants - Collecting The Remnants. 68 GiB, ULed by zibbik: 2: 2: Video (Music videos) Leon Russell - Asylum Choir II (1969. Leon Russell. Curtain Up 2. Hello There 02. A Song For You 2. Download discography Leon Russell on site losslessalbums. 09 (1,230) What's Going On [Vinyl] Marvin Gaye $21. Tomorrow Is Such A Long Time (alt. Label: The Right Stuff. (Soundboard FLAC) "A New Dream" David Sylvian - vocals, guitar, keyboards Robert Fripp - Guitars, frippertronics Trey Gunn - Grand S. 2008 06-52-09-----File Generated by Ape Batch Check 1. cue), lossless » Classic Rock & Hard Rock (lossless) :: rutrckr. Another View 5. 本名: Claude Russell Bridges. Fortune Of Fame 4. Leon Russell (Vinyl) 1970. Albums include The Concert for Bangla Desh, Carney, and Leon Russell. One More Love Song (Leon Russell) 04:04 02. 3rd Movement CD 2: 1. Wood Arrangement and Production Dylan Wood Sometimes it seems life is full of heartbreak Don't ever let it get you down In this world of pain and sadness Hope can always be found So, run to the Brave New World I'll watch from the road you are traveling down I'll hold out the light for you to see. Детали релиза Elton John (1969 - 2016) (non-Remastered) [FLAC (image +. Simply Red - Infidelity flac album download free. Leon banter 14. drake-tickets. In February 2004 he published the first of three published three pioneering histories that have excavated and championed the previously overlooked foundations of contemporary party culture: Love Saves the Day: A History of American Dance Music (1970-79), Hold on to Your Dreams: Arthur Russell and the Downtown Music Scene (1973-92), and Life and. All The Other Dreams 3. Leon Russell (8) Leonard Cohen (26). No Dress Rehearsal 2. Crowded Inside My Heart 10. She has performed and recorded with Bonnie Raitt, Kenny Loggins, Ry Cooder, Joe Cocker, Leon Russell, Jackson Browne, Van Morrison, and many others. Azeri Albüm, Azeri klipler, Azeri Tek Mp3, Blues Jazz, Classical, Discography, Electronic Trance, Hip-Hop, Instrumental New Age Indie, Karısık Albümler, Old Music, Other, Pop R B Reggae, Rap Hip-Hop, Rock Metal Punk, Seri Albüm, Soundtrack, Türkçe Pop, Türkü Sanat Özgün Müzik, Yabancı Klıp İndir, Yabancı Klıp İzle, Yeni Çıkan Albümler, Yerli Enstrümantal, Yerli Film. Ruddy Ducker 16. cue), lossless. Pamela Polland An award-winning singer/songwriter, Pamela has three albums on Columbia and Epic as well as three more independently released albums to her credit, and two gold records. Little Ford Ragtop 2. Funeral for a Friend/Love lies Bleeding 02. Leon Russell A: Leaving Whipporwhill B: Time For Love: Shelter USA: SR-40277: Jul 1974: 7" 1: 6. The Union – Elton John e Leon Russell Por admin em ‎Musicas CDs Torrent , Blues-rock , Cds Torrent , Rock Artistas: Elton John, Leon Russell Lançamento: 11 de outubro de 2010 Gravadora: Decca Records Gênero: Rock, Blues-rock. Here Come The Blues (alt. 09 (1,230) What's Going On [Vinyl] Marvin Gaye $21. Best Of Leon 1990. A Song For You* 2. This is a short message to tell you that Bootlegzone is so successfull that its storage space is almost full !. 229,399 listeners Roy Buchanan. Take It Over 7. Notice: Undefined index: HTTP_REFERER in /html/zywhr/hpap. Muddy Water Under The Bridge 3. Deutsch English Español Français Italiano 日本語. They are now considered one of the most successful and prolific session. Elton John and Leon Russell The Union 2010 FLAC: 421. On a Distant Shore 2017. It followed his debut with the Midnight String Quartet and a production by Russell and Marc Benno billed as the Asylum Choir. Find the latest tracks, albums, and images from Leon Russell. Download FLAC Humble Pie - Back On Track 2002 lossless CD, MP3. Artist: Karen Carroll & Rudy Rotta Title Of Album: Blues' Greatest Hits Release Date: 1990 Location: USA/Italy Label: Ornament CH-7. [Flac] Rock - Test&Copy + Cue (Lossless Crew) [Cura] Ciclo The Beatles Artist: George HarrisonTitle Of Album: The Concert for BangladeshYear: 1971 - Remastered 2005Genre: Rock Source: CDPlaying Time: 79:57Total Size: 509,29 MBQuality: FLAC+Cue+Log+InfoBitrate: LosslessMusicistiArtisti principali George Harrison - voce, chitarre, chitarra acustica Eric Clapton - chitarra solista Billy Preston. In The Jailhouse Now with Webb Pierce (02:08) 07.